Zone Telechargement

Dernières actualités du site :

Qualités également disponibles pour ce film:

Ces folles filles d'Ève


Qualité DVDRiP MKV | MULTiLANGUES


Ces folles filles d'Ève


Ces folles filles d'Ève

Origine : USA
Réalisation : Henry Levin
Acteur(s) : Dolores Hart, George Hamilton, Yvette Mimieux
Genre : Comédie, Drame, Romance
Durée : 1sa 39min
Date de sortie : 28 December 1960 (USA)
Année de production : 1960
Distributeur : Euterpe
Titre original :Bastam Dois para Amar
Note spectateurs : (1,878 notes)


Ces folles filles d'Ève

Merritt, Melanie, Tuggle and Angie are four Midwestern college co-eds who travel to Fort Lauderdale, Florida for their spring vacation and we follow the episodic series of adventures and romance they all get into with some college guys they meet.

Ces folles filles d'Ève

Qualité: DVDRiP MKV
Langue: MULTiLANGUES
Taille totale: 1.37 Go

Nom de la release: Ces.Folles.Filles.D.Eve.1960.MULTI.DVDRIP.x264.AC3-gismo65

Ces.Folles.Filles.D.Eve.1960.MULTI.DVDRIP.x264.AC3-gismo65-www.zone-telechargement.top.mkv
Format                      : Matroska
Format version              : Version 4 / Version 2
File size                   : 1.37 GiB
Duration                    : 1 h 35 min
Overall bit rate            : 2 057 kb/s
Movie name                  : Ces.Folles.Filles.D.Eve.1960.MULTI.DVDRIP.x264.AC3-gismo65
Encoded date                : UTC 2017-08-31 08:30:04
Writing application         : mkvmerge v14.0.0 ('Flow') 64bit
Writing library             : libebml v1.3.4 + libmatroska v1.4.5

Video
ID                          : 1
Format                      : AVC
Format/Info                 : Advanced Video Codec
Format profile              : [email protected]
Format settings, CABAC      : Yes
Format settings, RefFrames  : 9 frames
Codec ID                    : V_MPEG4/ISO/AVC
Duration                    : 1 h 35 min
Bit rate                    : 1 671 kb/s
Width                       : 716 pixels
Height                      : 428 pixels
Display aspect ratio        : 2.40:1
Frame rate mode             : Constant
Frame rate                  : 25.000 FPS
Color space                 : YUV
Chroma subsampling          : 4:2:0
Bit depth                   : 8 bits
Scan type                   : Progressive
Bits/(Pixel*Frame)          : 0.218
Stream size                 : 1.11 GiB (81%)
Writing library             : x264 core 148 r2721
Encoding settings           : cabac=1 / ref=9 / deblock=1:-1:-1 / analyse=0x3:0x133 / me=umh / subme=10 / psy=1 / psy_rd=0.10:0.10 / mixed_ref=1 / me_range=32 / chroma_me=1 / trellis=2 / 8x8dct=1 / cqm=0 / deadzone=6,6 / fast_pskip=0 / chroma_qp_offset=-2 / threads=6 / lookahead_threads=1 / sliced_threads=0 / nr=0 / decimate=1 / interlaced=0 / bluray_compat=0 / constrained_intra=0 / bframes=8 / b_pyramid=2 / b_adapt=2 / b_bias=0 / direct=3 / weightb=1 / open_gop=0 / weightp=2 / keyint=250 / keyint_min=25 / scenecut=40 / intra_refresh=0 / rc_lookahead=50 / rc=2pass / mbtree=1 / bitrate=1671 / ratetol=1.0 / qcomp=0.80 / qpmin=10 / qpmax=69 / qpstep=4 / cplxblur=20.0 / qblur=0.5 / vbv_maxrate=17500 / vbv_bufsize=17500 / nal_hrd=none / filler=0 / ip_ratio=1.10 / aq=1:0.00
Default                     : Yes
Forced                      : Yes

Audio #1
ID                          : 2
Format                      : AC-3
Format/Info                 : Audio Coding 3
Format settings, Endianness : Big
Codec ID                    : A_AC3
Duration                    : 1 h 35 min
Bit rate mode               : Constant
Bit rate                    : 192 kb/s
Channel(s)                  : 1 channel
Channel positions           : Front: C
Sampling rate               : 48.0 kHz
Frame rate                  : 31.250 FPS (1536 SPF)
Bit depth                   : 16 bits
Compression mode            : Lossy
Stream size                 : 131 MiB (9%)
Title                       : AC3 1.0 FR
Language                    : French
Service kind                : Complete Main
Default                     : Yes
Forced                      : Yes

Audio #2
ID                          : 3
Format                      : AC-3
Format/Info                 : Audio Coding 3
Format settings, Endianness : Big
Codec ID                    : A_AC3
Duration                    : 1 h 35 min
Bit rate mode               : Constant
Bit rate                    : 192 kb/s
Channel(s)                  : 1 channel
Channel positions           : Front: C
Sampling rate               : 48.0 kHz
Frame rate                  : 31.250 FPS (1536 SPF)
Bit depth                   : 16 bits
Compression mode            : Lossy
Stream size                 : 131 MiB (9%)
Title                       : AC3 1.0 ENG
Language                    : English
Service kind                : Complete Main
Default                     : No
Forced                      : No

Text #1
ID                          : 4
Format                      : UTF-8
Codec ID                    : S_TEXT/UTF8
Codec ID/Info               : UTF-8 Plain Text
Duration                    : 10 min 20 s
Bit rate                    : 0 b/s
Count of elements           : 2
Stream size                 : 59.0 Bytes (0%)
Title                       : SRT Forced FR
Language                    : French
Default                     : Yes
Forced                      : Yes

Text #2
ID                          : 5
Format                      : UTF-8
Codec ID                    : S_TEXT/UTF8
Codec ID/Info               : UTF-8 Plain Text
Duration                    : 1 h 34 min
Bit rate                    : 47 b/s
Count of elements           : 807
Stream size                 : 32.7 KiB (0%)
Title                       : SRT Complet FR
Language                    : French
Default                     : No
Forced                      : No



Ces folles filles d'Ève



Turbobit
Télécharger


1fichier
Télécharger



Uptobox
Télécharger



Publie 13-09-2017, 04:30 par Aeron




Information

Les membres de Guests ne peuvent laisser de commentaires.